GloDLS.to - Download Movies, TV, Games and Other Torrents Free RSS 2.0enGloDLS.to - Download Movies, TV, Games and Other Torrents FreeGloDLS.to - Download Movies, TV, Games and Other Torrents Free RSS Feedhttp://glodls.toCopyright GloDLS.to - Download Movies, TV, Games and Other Torrents FreeWed, 18 Oct 2017 23:14:26 +0100 Army.Behind.The.New.Frontlines.S01E01.The.Battle.For.Mosul.720p.HDTV.x264-CRAVERS http://glodls.to/torrent.php?id=2883304 http://glodls.to/torrent.php?id=2883304 Wed, 18 Oct 2017 21:54:37 +0100 TV
[url=https://www.sparrowpics.com/image/kbFon][img]https://www.sparrowpics.com/images/2017/07/04/kbFon.png[/img][/url]

[b]Complete name : Army.Behind.The.New.Frontlines.S01E01.The.Battle.For.Mosul.720p.HDTV.x264-CRAVERS.mkv
Format : Matroska
Format version : Version 4 / Version 2
File size : 1.11 GiB
Duration : 59 min 1 s
Overall bit rate : 2 683 kb/s
Encoded date : UTC 2017-10-18 21:02:30
Writing application : mkvmerge v9.8.0 ('Kuglblids') 64bit
Writing library : libebml v1.3.4 + libmatroska v1.4.5

Video
ID : 1
Format : AVC
Format/Info : Advanced Video Codec
Format profile : High@L4.1
Format settings, CABAC : Yes
Format settings, ReFrames : 5 frames
Codec ID : V_MPEG4/ISO/AVC
Duration : 59 min 1 s
Bit rate : 2 557 kb/s
Width : 1 280 pixels
Height : 720 pixels
Display aspect ratio : 16:9
Frame rate mode : Constant
Frame rate : 25.000 FPS
Color space : YUV
Chroma subsampling : 4:2:0
Bit depth : 8 bits
Scan type : Progressive
Bits/(Pixel*Frame) : 0.111
Stream size : 1.05 GiB (95%)
Writing library : x264 core 152 r2851 ba24899
Encoding settings : cabac=1 / ref=5 / deblock=1:0:0 / analyse=0x3:0x113 / me=hex / subme=8 / psy=1 / psy_rd=1.00:0.00 / mixed_ref=1 / me_range=16 / chroma_me=1 / trellis=2 / 8x8dct=1 / cqm=0 / deadzone=21,11 / fast_pskip=1 / chroma_qp_offset=-2 / threads=12 / lookahead_threads=2 / sliced_threads=0 / nr=0 / decimate=1 / interlaced=0 / bluray_compat=0 / constrained_intra=0 / bframes=3 / b_pyramid=2 / b_adapt=1 / b_bias=0 / direct=3 / weightb=1 / open_gop=0 / weightp=2 / keyint=250 / keyint_min=25 / scenecut=40 / intra_refresh=0 / rc_lookahead=50 / rc=crf / mbtree=1 / crf=20.0 / qcomp=0.60 / qpmin=0 / qpmax=69 / qpstep=4 / ip_ratio=1.40 / aq=1:1.00
Language : English
Default : Yes
Forced : No
Color range : Limited
Matrix coefficients : BT.709

Audio
ID : 2
Format : AAC
Format/Info : Advanced Audio Codec
Format profile : LC
Codec ID : A_AAC
Duration : 59 min 1 s
Bit rate : 124 kb/s
Channel(s) : 2 channels
Channel positions : Front: L R
Sampling rate : 48.0 kHz
Frame rate : 46.875 FPS (1024 spf)
Compression mode : Lossy
Stream size : 52.3 MiB (5%)
Default : Yes
Forced : No[/b]

[url=https://www.sparrowpics.com/image/kbJ5y][img]https://www.sparrowpics.com/images/2017/07/04/kbJ5y.png[/img][/url]

[URL=https://tv.sparrowpics.com/image/DfUlU][IMG]https://tv.sparrowpics.com/images/2017/10/18/DfUlU.th.jpg[/IMG][/URL]

[URL=https://tv.sparrowpics.com/image/DfpA8][b]Click To View Screenshot[/b][/URL]

[URL=https://tv.sparrowpics.com/image/DfLgO][b]Click To View Screenshot[/b][/URL]

[URL=https://tv.sparrowpics.com/image/DfsLJ][b]Click To View Screenshot[/b][/URL][/center] ]]>
A.Storks.Journey.2017.1080p.BluRay.x264-CONDITION[EtHD] http://glodls.to/torrent.php?id=2883303 http://glodls.to/torrent.php?id=2883303 Wed, 18 Oct 2017 21:39:41 +0100 Movies EtHD - EtHD - Et High-Definition Movies

-----------------------------------------------------

[url=https://extraimage.net/image/TB5b][img]https://extraimage.net/images/2017/10/18/64d89ce09451fae413df3b0911202133.jpg[/img][/url]

A.Storks.Journey.2017.1080p.BluRay.x264-CONDITION

http://www.imdb.com/title/tt3823116/

[Video Bitrate]:.............: 7416kb/s
[Duration]:.............: 1 h 24 min
[Video Codec]:.............: AVC
[Resolution]:.............: 1920x1040 px
[Aspect Ratio]:.............: 1.85:1
[Audio Codec]:.............: DTS
[Audio Bitrate]:.............: 1509kb/s
[Audio Channels]:.............: 5.1ch
[Audio Language]:.............: English

Genre .......................: Animation | Adventure | Family

[color=green][b]#EtHD -> To avoid fakes, ALWAYS check that the torrent was added by EtHD [/b][/color]



[color=green][b]To keep us going Support us by donating Bitcoin: 3MDamEmgKepqagtQe9eEdQ3NCrWEWjhoL5[/b][/color]

[b]Screens...[/b]
[url=https://extraimage.net/image/TB5y][img]https://extraimage.net/images/2017/10/18/38ca5a3089d9d917e93a2d1d2e520d23.th.jpg[/img][/url]
[url=https://extraimage.net/image/TB5L][img]https://extraimage.net/images/2017/10/18/e77b9444520b17c6fb868fd6570e6518.th.jpg[/img][/url]
[url=https://extraimage.net/image/TB5Q][img]https://extraimage.net/images/2017/10/18/45659103e93cc973a0be368bfa682334.th.jpg[/img][/url]
[url=https://extraimage.net/image/TB5R][img]https://extraimage.net/images/2017/10/18/5a1aa61451ac227c50e00d012df7c976.th.jpg[/img][/url]
[url=https://extraimage.net/image/TB5h][img]https://extraimage.net/images/2017/10/18/d156976c10192a0a6a29c77d62de3443.th.jpg[/img][/url] ]]>
A.Storks.Journey.2017.1080p.BluRay.x264-CONDITION http://glodls.to/torrent.php?id=2883302 http://glodls.to/torrent.php?id=2883302 Wed, 18 Oct 2017 21:36:47 +0100 Movies
[b]ImDb: [URL]http://www.imdb.com/title/tt3823116[/URL][/b]

[url=https://www.sparrowpics.com/image/kbFon][img]https://www.sparrowpics.com/images/2017/07/04/kbFon.png[/img][/url]

[b]Complete name : cdn-a.storks.journey.2017.1080p.bluray.x264.mkv
Format : Matroska
Format version : Version 4 / Version 2
File size : 4.37 GiB
Duration : 1 h 24 min
Overall bit rate : 7 416 kb/s
Writing application : mkvmerge v17.0.0 ('Be Ur Friend') 64-bit
Writing library : libebml v1.3.5 + libmatroska v1.4.8

Video
ID : 1
Format : AVC
Format/Info : Advanced Video Codec
Format profile : High@L4.1
Format settings, CABAC : Yes
Format settings, ReFrames : 4 frames
Codec ID : V_MPEG4/ISO/AVC
Duration : 1 h 24 min
Bit rate : 5 909 kb/s
Width : 1 920 pixels
Height : 1 040 pixels
Display aspect ratio : 1.85:1
Frame rate mode : Constant
Frame rate : 23.976 (24000/1001) FPS
Color space : YUV
Chroma subsampling : 4:2:0
Bit depth : 8 bits
Scan type : Progressive
Bits/(Pixel*Frame) : 0.123
Stream size : 3.39 GiB (78%)
Writing library : x264 core 152 r2851 ba24899
Encoding settings : cabac=1 / ref=4 / deblock=1:0:0 / analyse=0x3:0x113 / me=umh / subme=8 / psy=1 / psy_rd=1.00:0.00 / mixed_ref=1 / me_range=16 / chroma_me=1 / trellis=1 / 8x8dct=1 / cqm=0 / deadzone=21,11 / fast_pskip=1 / chroma_qp_offset=-2 / threads=12 / lookahead_threads=2 / sliced_threads=0 / nr=0 / decimate=1 / interlaced=0 / bluray_compat=0 / constrained_intra=0 / bframes=3 / b_pyramid=2 / b_adapt=1 / b_bias=0 / direct=3 / weightb=1 / open_gop=0 / weightp=2 / keyint=240 / keyint_min=24 / scenecut=40 / intra_refresh=0 / rc_lookahead=50 / rc=2pass / mbtree=1 / bitrate=5909 / ratetol=1.0 / qcomp=0.60 / qpmin=0 / qpmax=69 / qpstep=4 / cplxblur=20.0 / qblur=0.5 / ip_ratio=1.40 / aq=1:1.00
Language : English
Default : Yes
Forced : No

Audio
ID : 2
Format : DTS
Format/Info : Digital Theater Systems
Mode : 16
Format settings, Endianness : Big
Codec ID : A_DTS
Duration : 1 h 24 min
Bit rate mode : Constant
Bit rate : 1 509 kb/s
Channel(s) : 6 channels
Channel positions : Front: L C R, Side: L R, LFE
Sampling rate : 48.0 kHz
Frame rate : 93.750 FPS (512 spf)
Bit depth : 24 bits
Compression mode : Lossy
Stream size : 911 MiB (20%)
Language : English
Default : Yes
Forced : No

Menu
00:00:00.000 : en:00:00:00.000
00:10:06.022 : en:00:10:06.022
00:21:00.009 : en:00:21:00.009
00:31:02.444 : en:00:31:02.444
00:43:06.000 : en:00:43:06.000
00:52:04.538 : en:00:52:04.538
01:03:14.082 : en:01:03:14.082
01:13:09.760 : en:01:13:09.760
01:18:29.955 : en:01:18:29.955[/b]

[url=https://www.sparrowpics.com/image/kbJ5y][img]https://www.sparrowpics.com/images/2017/07/04/kbJ5y.png[/img][/url]

[URL=https://www.sparrowpics.com/image/2Hq6M][IMG]https://www.sparrowpics.com/images/2017/10/19/2Hq6M.th.jpg[/IMG][/URL]

[URL=https://www.sparrowpics.com/image/2G1tV][b]Click To View Screenshot[/b][/URL]

[URL=https://www.sparrowpics.com/image/2GF2d][b]Click To View Screenshot[/b][/URL]

[URL=https://www.sparrowpics.com/image/2GLs1][b]Click To View Screenshot[/b][/URL][/center] ]]>
The Marine 2 (2009) 1080p BRRip x264 - FRISKY http://glodls.to/torrent.php?id=2883301 http://glodls.to/torrent.php?id=2883301 Wed, 18 Oct 2017 21:34:55 +0100 Movies
[center][url=http://imgcola.com/image/rAWj8][img]http://imgcola.com/images/rAFRM.md.jpg[/img][/url][/center]

[center][url=http://www.imdb.com/title/tt1266027/][img]http://imgcola.com/images/rLYWb.png[/img][/url][/center]

[center][b]Media Info[/b][/center]
[center]File: The.Marine.2.2009.1080p.BRRip.x264-FRISKY.mp4
Size: 1549996285 bytes (1.44 GiB), duration: 01:35:20, avg.bitrate: 2168 kb/s
Audio: aac, 48000 Hz, 5:1 (und)
Video: h264, yuv420p, 1920x1080, 23.98 fps(r) (und)[/center]


[center][b]Screens[/b][/center]
[center](click for full size image)[/center]

[center][url=http://imgcola.com/image/rA9CO][img]http://imgcola.com/images/rAsTa.th.png[/img][/url] [url=http://imgcola.com/image/rARxk][img]http://imgcola.com/images/rAXmh.th.png[/img][/url] [url=http://imgcola.com/image/rANi5][img]http://imgcola.com/images/rA9CO.th.png[/img][/url] [url=http://imgcola.com/image/rAZL0][img]http://imgcola.com/images/rAgyX.th.png[/img][/url] [url=http://imgcola.com/image/rAPmw][img]http://imgcola.com/images/rAx5K.th.png[/img][/url] [url=http://imgcola.com/image/rAFRM][img]http://imgcola.com/images/rAlZZ.th.png[/img][/url][/center] ]]>
The Marine (2006) 1080p BRRip x264 - FRISKY http://glodls.to/torrent.php?id=2883300 http://glodls.to/torrent.php?id=2883300 Wed, 18 Oct 2017 21:34:06 +0100 Movies
[center][url=http://imgcola.com/image/r67D6][img]http://imgcola.com/images/r6Bl1.md.jpg[/img][/url][/center]

[center][url=http://www.imdb.com/title/tt0419946/][img]http://imgcola.com/images/rLYWb.png[/img][/url][/center]

[center][b]Media Info[/b][/center]
[center]File: The.Marine.2006.1080p.BRRip.x264.-FRISKY.mp4
Size: 1423280070 bytes (1.33 GiB), duration: 01:31:40, avg.bitrate: 2070 kb/s
Audio: aac, 48000 Hz, 5:1 (und)
Video: h264, yuv420p, 1920x1080, 23.98 fps(r) (und)[/center]


[center][b]Screens[/b][/center]
[center](click for full size image)[/center]

[center][url=http://imgcola.com/image/rAIh7][img]http://imgcola.com/images/rAcbj.th.png[/img][/url] [url=http://imgcola.com/image/rAeja][img]http://imgcola.com/images/rACRC.th.png[/img][/url] [url=http://imgcola.com/image/rAUlz][img]http://imgcola.com/images/rAoqv.th.png[/img][/url] [url=http://imgcola.com/image/rAT1h][img]http://imgcola.com/images/rA1HB.th.png[/img][/url] [url=http://imgcola.com/image/r6VHK][img]http://imgcola.com/images/rAph5.th.png[/img][/url] [url=http://imgcola.com/image/r6GY0][img]http://imgcola.com/images/r6yNX.th.png[/img][/url][/center] ]]>
Body.Snatchers.1993.1080p.BluRay.x264-PSYCHD http://glodls.to/torrent.php?id=2883299 http://glodls.to/torrent.php?id=2883299 Wed, 18 Oct 2017 21:31:51 +0100 Movies
[b]ImDb: [URL]http://www.imdb.com/title/tt0106452[/URL][/b]

[url=https://www.sparrowpics.com/image/kbFon][img]https://www.sparrowpics.com/images/2017/07/04/kbFon.png[/img][/url]

[b]Complete name : Body.Snatchers.1993.1080p.BluRay.x264-PSYCHD.mkv
Format : Matroska
Format version : Version 4 / Version 2
File size : 6.56 GiB
Duration : 1 h 27 min
Overall bit rate : 10.8 Mb/s
Encoded date : UTC 2010-02-22 21:41:29
Writing application : no_variable_data
Writing library : no_variable_data

Video
ID : 1
Format : AVC
Format/Info : Advanced Video Codec
Format profile : High@L4.1
Format settings, CABAC : Yes
Format settings, ReFrames : 5 frames
Codec ID : V_MPEG4/ISO/AVC
Duration : 1 h 27 min
Bit rate : 9 265 kb/s
Width : 1 920 pixels
Height : 800 pixels
Display aspect ratio : 2.40:1
Frame rate mode : Constant
Frame rate : 23.976 (24000/1001) FPS
Color space : YUV
Chroma subsampling : 4:2:0
Bit depth : 8 bits
Scan type : Progressive
Bits/(Pixel*Frame) : 0.252
Stream size : 5.51 GiB (84%)
Writing library : x264 core 152 r2851 ba24899
Encoding settings : cabac=1 / ref=5 / deblock=1:-3:-3 / analyse=0x3:0x113 / me=umh / subme=8 / psy=1 / psy_rd=1.10:0.00 / mixed_ref=1 / me_range=32 / chroma_me=1 / trellis=2 / 8x8dct=1 / cqm=0 / deadzone=21,11 / fast_pskip=1 / chroma_qp_offset=-2 / threads=24 / lookahead_threads=4 / sliced_threads=0 / nr=0 / decimate=1 / interlaced=0 / bluray_compat=0 / constrained_intra=0 / bframes=3 / b_pyramid=2 / b_adapt=2 / b_bias=0 / direct=3 / weightb=1 / open_gop=0 / weightp=2 / keyint=240 / keyint_min=24 / scenecut=40 / intra_refresh=0 / rc_lookahead=50 / rc=2pass / mbtree=1 / bitrate=9265 / ratetol=1.0 / qcomp=0.60 / qpmin=0 / qpmax=69 / qpstep=4 / cplxblur=20.0 / qblur=0.5 / ip_ratio=1.40 / aq=3:0.75
Default : Yes
Forced : No
Statistics Tags Issue : no_variable_data 1970-01-01 00:00:00 / no_variable_data 2010-02-22 21:41:29
FromStats_BitRate : 9261763
FromStats_Duration : 01:27:08.265000000
FromStats_FrameCount : 125353
FromStats_StreamSize : 6052869004

Audio
ID : 2
Format : DTS
Format/Info : Digital Theater Systems
Mode : 16
Format settings, Endianness : Big
Codec ID : A_DTS
Duration : 1 h 27 min
Bit rate mode : Constant
Bit rate : 1 509 kb/s
Channel(s) : 6 channels
Channel positions : Front: L C R, Side: L R, LFE
Sampling rate : 48.0 kHz
Frame rate : 93.750 FPS (512 spf)
Bit depth : 24 bits
Compression mode : Lossy
Stream size : 941 MiB (14%)
Language : English
Default : Yes
Forced : No
Statistics Tags Issue : no_variable_data 1970-01-01 00:00:00 / no_variable_data 2010-02-22 21:41:29
FromStats_BitRate : 1509000
FromStats_Duration : 01:27:08.288000000
FromStats_FrameCount : 490152
FromStats_StreamSize : 986185824

Text #1
ID : 3
Format : UTF-8
Codec ID : S_TEXT/UTF8
Codec ID/Info : UTF-8 Plain Text
Language : English
Default : No
Forced : No
Statistics Tags Issue : no_variable_data 1970-01-01 00:00:00 / no_variable_data 2010-02-22 21:41:29
FromStats_BitRate : 37
FromStats_Duration : 01:20:26.488000000
FromStats_FrameCount : 944
FromStats_StreamSize : 22460

Text #2
ID : 4
Format : UTF-8
Codec ID : S_TEXT/UTF8
Codec ID/Info : UTF-8 Plain Text
Title : SDH
Language : English
Default : No
Forced : No
Statistics Tags Issue : no_variable_data 1970-01-01 00:00:00 / no_variable_data 2010-02-22 21:41:29
FromStats_BitRate : 38
FromStats_Duration : 01:20:30.909000000
FromStats_FrameCount : 1006
FromStats_StreamSize : 23357

Menu
00:00:00.000 : en:00:00:00.000
00:03:58.238 : en:00:03:58.238
00:06:14.708 : en:00:06:14.708
00:11:07.542 : en:00:11:07.542
00:12:34.128 : en:00:12:34.128
00:15:37.687 : en:00:15:37.687
00:18:19.223 : en:00:18:19.223
00:19:44.266 : en:00:19:44.266
00:21:19.445 : en:00:21:19.445
00:24:29.093 : en:00:24:29.093
00:29:00.781 : en:00:29:00.781
00:32:31.366 : en:00:32:31.366
00:36:52.127 : en:00:36:52.127
00:38:46.491 : en:00:38:46.491
00:40:10.158 : en:00:40:10.158
00:41:28.236 : en:00:41:28.236
00:43:23.518 : en:00:43:23.518
00:49:24.211 : en:00:49:24.211
00:50:10.674 : en:00:50:10.674
00:52:52.711 : en:00:52:52.711
00:55:24.988 : en:00:55:24.988
01:01:56.338 : en:01:01:56.338
01:05:35.098 : en:01:05:35.098
01:11:45.218 : en:01:11:45.218
01:14:24.126 : en:01:14:24.126
01:16:53.859 : en:01:16:53.859
01:19:50.703 : en:01:19:50.703
01:21:59.915 : en:01:21:59.915
01:23:44.394 : en:01:23:44.394[/b]

[url=https://www.sparrowpics.com/image/kbJ5y][img]https://www.sparrowpics.com/images/2017/07/04/kbJ5y.png[/img][/url]

[URL=https://www.sparrowpics.com/image/2H9oN][IMG]https://www.sparrowpics.com/images/2017/10/19/2H9oN.th.jpg[/IMG][/URL]

[URL=https://www.sparrowpics.com/image/2HQ5Y][b]Click To View Screenshot[/b][/URL]

[URL=https://www.sparrowpics.com/image/2Hfm9][b]Click To View Screenshot[/b][/URL]

[URL=https://www.sparrowpics.com/image/2Hxgb][b]Click To View Screenshot[/b][/URL][/center] ]]>
Body.Snatchers.1993.720p.BluRay.x264-PSYCHD http://glodls.to/torrent.php?id=2883298 http://glodls.to/torrent.php?id=2883298 Wed, 18 Oct 2017 21:23:22 +0100 Movies
[b]ImDb: [URL]http://www.imdb.com/title/tt0106452[/URL][/b]

[url=https://www.sparrowpics.com/image/kbFon][img]https://www.sparrowpics.com/images/2017/07/04/kbFon.png[/img][/url]

[b]Complete name : Body.Snatchers.1993.720p.BluRay.x264-PSYCHD.mkv
Format : Matroska
Format version : Version 4 / Version 2
File size : 4.37 GiB
Duration : 1 h 27 min
Overall bit rate : 7 180 kb/s
Encoded date : UTC 2010-02-22 21:41:29
Writing application : no_variable_data
Writing library : no_variable_data

Video
ID : 1
Format : AVC
Format/Info : Advanced Video Codec
Format profile : High@L4.1
Format settings, CABAC : Yes
Format settings, ReFrames : 5 frames
Codec ID : V_MPEG4/ISO/AVC
Duration : 1 h 27 min
Bit rate : 5 670 kb/s
Width : 1 280 pixels
Height : 536 pixels
Display aspect ratio : 2.40:1
Frame rate mode : Constant
Frame rate : 23.976 (24000/1001) FPS
Color space : YUV
Chroma subsampling : 4:2:0
Bit depth : 8 bits
Scan type : Progressive
Bits/(Pixel*Frame) : 0.345
Stream size : 3.36 GiB (77%)
Writing library : x264 core 152 r2851 ba24899
Encoding settings : cabac=1 / ref=5 / deblock=1:-3:-3 / analyse=0x3:0x113 / me=umh / subme=8 / psy=1 / psy_rd=1.10:0.00 / mixed_ref=1 / me_range=24 / chroma_me=1 / trellis=2 / 8x8dct=1 / cqm=0 / deadzone=21,11 / fast_pskip=1 / chroma_qp_offset=-2 / threads=17 / lookahead_threads=2 / sliced_threads=0 / nr=0 / decimate=1 / interlaced=0 / bluray_compat=0 / constrained_intra=0 / bframes=3 / b_pyramid=2 / b_adapt=2 / b_bias=0 / direct=3 / weightb=1 / open_gop=0 / weightp=2 / keyint=240 / keyint_min=24 / scenecut=40 / intra_refresh=0 / rc_lookahead=50 / rc=2pass / mbtree=1 / bitrate=5670 / ratetol=1.0 / qcomp=0.60 / qpmin=0 / qpmax=69 / qpstep=4 / cplxblur=20.0 / qblur=0.5 / ip_ratio=1.40 / aq=3:0.75
Default : Yes
Forced : No
Statistics Tags Issue : no_variable_data 1970-01-01 00:00:00 / no_variable_data 2010-02-22 21:41:29
FromStats_BitRate : 5668141
FromStats_Duration : 01:27:08.265000000
FromStats_FrameCount : 125353
FromStats_StreamSize : 3704318133

Audio
ID : 2
Format : DTS
Format/Info : Digital Theater Systems
Mode : 16
Format settings, Endianness : Big
Codec ID : A_DTS
Duration : 1 h 27 min
Bit rate mode : Constant
Bit rate : 1 509 kb/s
Channel(s) : 6 channels
Channel positions : Front: L C R, Side: L R, LFE
Sampling rate : 48.0 kHz
Frame rate : 93.750 FPS (512 spf)
Bit depth : 24 bits
Compression mode : Lossy
Stream size : 941 MiB (21%)
Language : English
Default : Yes
Forced : No
Statistics Tags Issue : no_variable_data 1970-01-01 00:00:00 / no_variable_data 2010-02-22 21:41:29
FromStats_BitRate : 1509000
FromStats_Duration : 01:27:08.288000000
FromStats_FrameCount : 490152
FromStats_StreamSize : 986185824

Text #1
ID : 3
Format : UTF-8
Codec ID : S_TEXT/UTF8
Codec ID/Info : UTF-8 Plain Text
Language : English
Default : No
Forced : No
Statistics Tags Issue : no_variable_data 1970-01-01 00:00:00 / no_variable_data 2010-02-22 21:41:29
FromStats_BitRate : 37
FromStats_Duration : 01:20:26.488000000
FromStats_FrameCount : 944
FromStats_StreamSize : 22460

Text #2
ID : 4
Format : UTF-8
Codec ID : S_TEXT/UTF8
Codec ID/Info : UTF-8 Plain Text
Title : SDH
Language : English
Default : No
Forced : No
Statistics Tags Issue : no_variable_data 1970-01-01 00:00:00 / no_variable_data 2010-02-22 21:41:29
FromStats_BitRate : 38
FromStats_Duration : 01:20:30.909000000
FromStats_FrameCount : 1006
FromStats_StreamSize : 23357

Menu
00:00:00.000 : en:00:00:00.000
00:03:58.238 : en:00:03:58.238
00:06:14.708 : en:00:06:14.708
00:11:07.542 : en:00:11:07.542
00:12:34.128 : en:00:12:34.128
00:15:37.687 : en:00:15:37.687
00:18:19.223 : en:00:18:19.223
00:19:44.266 : en:00:19:44.266
00:21:19.445 : en:00:21:19.445
00:24:29.093 : en:00:24:29.093
00:29:00.781 : en:00:29:00.781
00:32:31.366 : en:00:32:31.366
00:36:52.127 : en:00:36:52.127
00:38:46.491 : en:00:38:46.491
00:40:10.158 : en:00:40:10.158
00:41:28.236 : en:00:41:28.236
00:43:23.518 : en:00:43:23.518
00:49:24.211 : en:00:49:24.211
00:50:10.674 : en:00:50:10.674
00:52:52.711 : en:00:52:52.711
00:55:24.988 : en:00:55:24.988
01:01:56.338 : en:01:01:56.338
01:05:35.098 : en:01:05:35.098
01:11:45.218 : en:01:11:45.218
01:14:24.126 : en:01:14:24.126
01:16:53.859 : en:01:16:53.859
01:19:50.703 : en:01:19:50.703
01:21:59.915 : en:01:21:59.915
01:23:44.394 : en:01:23:44.394[/b]

[url=https://www.sparrowpics.com/image/kbJ5y][img]https://www.sparrowpics.com/images/2017/07/04/kbJ5y.png[/img][/url]

[URL=https://www.sparrowpics.com/image/2HVzc][IMG]https://www.sparrowpics.com/images/2017/10/19/2HVzc.th.jpg[/IMG][/URL]

[URL=https://www.sparrowpics.com/image/2HjV6][b]Click To View Screenshot[/b][/URL]

[URL=https://www.sparrowpics.com/image/2H71h][b]Click To View Screenshot[/b][/URL]

[URL=https://www.sparrowpics.com/image/2HKit][b]Click To View Screenshot[/b][/URL][/center] ]]>
Buttman.Focused.12.DiSC2.XXX.DVDRip.x264-Pr0nStarS http://glodls.to/torrent.php?id=2883297 http://glodls.to/torrent.php?id=2883297 Wed, 18 Oct 2017 21:08:52 +0100 Adult XXX
{Duration} : 3 h 14 min
{Format} : MPEG-4
{Resolution} : 720 x 406 pixels
{Aspect Ratio} : 16:9
{Frame Rate} : 29.970 fps

[b]Thumbnails : -[/b]


[URL=https://www.sizzlingclicks.com/image/aKybq][IMG]https://www.sizzlingclicks.com/images/2017/10/18/aKybq.th.jpg[/IMG][/URL]
[b][URL]https://www.sizzlingclicks.com/image/aKybq[/URL][/b]
[b][URL]https://www.sizzlingclicks.com/image/aK40b[/URL][/b]
[b][URL]https://www.sizzlingclicks.com/image/aK7OC[/URL][/b]
[b][URL]https://www.sizzlingclicks.com/image/aKVd0[/URL][/b] ]]>
Buttman.Focused.12.DiSC1.XXX.DVDRip.x264-Pr0nStarS http://glodls.to/torrent.php?id=2883296 http://glodls.to/torrent.php?id=2883296 Wed, 18 Oct 2017 21:08:48 +0100 Adult XXX
{Duration} : 3 h 18 min
{Format} : MPEG-4
{Resolution} : 720 x 406 pixels
{Aspect Ratio} : 16:9
{Frame Rate} : 29.970 fps

[b]Thumbnails : -[/b]


[URL=https://www.sizzlingclicks.com/image/aK9ko][IMG]https://www.sizzlingclicks.com/images/2017/10/18/aK9ko.th.jpg[/IMG][/URL]
[b][URL]https://www.sizzlingclicks.com/image/aK9ko[/URL][/b]
[b][URL]https://www.sizzlingclicks.com/image/aKGJn[/URL][/b]
[b][URL]https://www.sizzlingclicks.com/image/aKmAw[/URL][/b]
[b][URL]https://www.sizzlingclicks.com/image/aKsHM[/URL][/b] ]]>
Doc.Martin.S08E05.HDTV.x264-ORGANiC[ettv] http://glodls.to/torrent.php?id=2883295 http://glodls.to/torrent.php?id=2883295 Wed, 18 Oct 2017 21:06:11 +0100 TV Et TV Shows


Doc.Martin.S08E05.HDTV.x264-ORGANiC


[Format]: Matroska
[Duration]: 45mn 8s
[Resolution]: 720 x 404 pixels
[Display aspect ratio]: 16:9
[Frame rate mode]: Constant
[Frame rate]: 25.000 fps


[color=green][b]#ettv -> To avoid fakes, ALWAYS check that the torrent was added by ettv[/b][/color]




[color=green][b]To keep us going Support us by donating Bitcoin: 3MDamEmgKepqagtQe9eEdQ3NCrWEWjhoL5[/b][/color]

[b]Screens...[/b]
[url=https://extraimage.net/image/TB5a][img]https://extraimage.net/images/2017/10/18/37323289125ec813ee1141124cf977ab.th.jpg[/img][/url] ]]>
Doc.Martin.S08E05.720p.HDTV.x264-ORGANiC http://glodls.to/torrent.php?id=2883294 http://glodls.to/torrent.php?id=2883294 Wed, 18 Oct 2017 21:03:42 +0100 TV
[url=https://www.sparrowpics.com/image/kbFon][img]https://www.sparrowpics.com/images/2017/07/04/kbFon.png[/img][/url]

[b]Complete name : Doc.Martin.S08E05.720p.HDTV.x264-ORGANiC.mkv
Format : Matroska
Format version : Version 2
File size : 1.08 GiB
Duration : 45 min 8 s
Overall bit rate : 3 425 kb/s
Writing application : x264.exe
Writing library : mkv2rls x264-tv version built on 2016.10.12

Video
ID : 1
Format : AVC
Format/Info : Advanced Video Codec
Format profile : High@L4.1
Format settings, CABAC : Yes
Format settings, ReFrames : 5 frames
Codec ID : V_MPEG4/ISO/AVC
Duration : 45 min 8 s
Bit rate : 3 165 kb/s
Width : 1 280 pixels
Height : 720 pixels
Display aspect ratio : 16:9
Frame rate mode : Constant
Frame rate : 25.000 FPS
Color space : YUV
Chroma subsampling : 4:2:0
Bit depth : 8 bits
Scan type : Progressive
Bits/(Pixel*Frame) : 0.137
Stream size : 1 022 MiB (92%)
Writing library : x264 core 152 r2851 ba24899
Encoding settings : cabac=1 / ref=5 / deblock=1:0:0 / analyse=0x3:0x113 / me=hex / subme=8 / psy=1 / psy_rd=1.00:0.00 / mixed_ref=1 / me_range=16 / chroma_me=1 / trellis=2 / 8x8dct=1 / cqm=0 / deadzone=21,11 / fast_pskip=1 / chroma_qp_offset=-2 / threads=18 / lookahead_threads=3 / sliced_threads=0 / nr=0 / decimate=1 / interlaced=0 / bluray_compat=0 / constrained_intra=0 / bframes=3 / b_pyramid=2 / b_adapt=1 / b_bias=0 / direct=3 / weightb=1 / open_gop=0 / weightp=2 / keyint=250 / keyint_min=25 / scenecut=40 / intra_refresh=0 / rc_lookahead=50 / rc=crf / mbtree=1 / crf=18.0 / qcomp=0.60 / qpmin=0 / qpmax=69 / qpstep=4 / ip_ratio=1.40 / aq=1:1.00
Language : English
Default : Yes
Forced : No

Audio
ID : 2
Format : AC-3
Format/Info : Audio Coding 3
Format settings, Endianness : Big
Codec ID : A_AC3
Duration : 45 min 8 s
Bit rate mode : Constant
Bit rate : 192 kb/s
Channel(s) : 6 channels
Channel(s)_Original : 2 channels
Channel positions : Front: L R
Sampling rate : 48.0 kHz
Frame rate : 31.250 FPS (1536 spf)
Bit depth : 16 bits
Compression mode : Lossy
Stream size : 62.0 MiB (6%)
Language : English
Service kind : Complete Main
Default : Yes
Forced : No[/b]

[url=https://www.sparrowpics.com/image/kbJ5y][img]https://www.sparrowpics.com/images/2017/07/04/kbJ5y.png[/img][/url]

[URL=https://tv.sparrowpics.com/image/DfQWb][IMG]https://tv.sparrowpics.com/images/2017/10/18/DfQWb.th.jpg[/IMG][/URL]

[URL=https://tv.sparrowpics.com/image/Dfr84][b]Click To View Screenshot[/b][/URL]

[URL=https://tv.sparrowpics.com/image/DftJd][b]Click To View Screenshot[/b][/URL]

[URL=https://tv.sparrowpics.com/image/DfJPs][b]Click To View Screenshot[/b][/URL][/center] ]]>
Doc.Martin.S08E05.HDTV.x264-ORGANiC http://glodls.to/torrent.php?id=2883293 http://glodls.to/torrent.php?id=2883293 Wed, 18 Oct 2017 21:02:38 +0100 TV
[url=https://www.sparrowpics.com/image/kbFon][img]https://www.sparrowpics.com/images/2017/07/04/kbFon.png[/img][/url]

[b]Complete name : Doc.Martin.S08E05.HDTV.x264-ORGANiC.mkv
Format : Matroska
Format version : Version 2
File size : 402 MiB
Duration : 45 min 8 s
Overall bit rate : 1 245 kb/s
Writing application : x264.exe
Writing library : mkv2rls x264-tv version built on 2016.10.12

Video
ID : 1
Format : AVC
Format/Info : Advanced Video Codec
Format profile : High@L3.1
Format settings, CABAC : Yes
Format settings, ReFrames : 5 frames
Codec ID : V_MPEG4/ISO/AVC
Duration : 45 min 8 s
Width : 720 pixels
Height : 404 pixels
Display aspect ratio : 16:9
Frame rate mode : Constant
Frame rate : 25.000 FPS
Color space : YUV
Chroma subsampling : 4:2:0
Bit depth : 8 bits
Scan type : Progressive
Writing library : x264 core 152 r2851 ba24899
Encoding settings : cabac=1 / ref=5 / deblock=1:0:0 / analyse=0x3:0x113 / me=hex / subme=8 / psy=1 / psy_rd=1.00:0.00 / mixed_ref=1 / me_range=16 / chroma_me=1 / trellis=2 / 8x8dct=1 / cqm=0 / deadzone=21,11 / fast_pskip=1 / chroma_qp_offset=-2 / threads=13 / lookahead_threads=2 / sliced_threads=0 / nr=0 / decimate=1 / interlaced=0 / bluray_compat=0 / constrained_intra=0 / bframes=3 / b_pyramid=2 / b_adapt=1 / b_bias=0 / direct=3 / weightb=1 / open_gop=0 / weightp=2 / keyint=250 / keyint_min=25 / scenecut=40 / intra_refresh=0 / rc_lookahead=50 / rc=crf / mbtree=1 / crf=19.0 / qcomp=0.60 / qpmin=0 / qpmax=69 / qpstep=4 / ip_ratio=1.40 / aq=1:1.00
Language : English
Default : Yes
Forced : No
Color range : Limited
Matrix coefficients : BT.709

Audio
ID : 2
Format : AAC
Format/Info : Advanced Audio Codec
Format profile : LC
Codec ID : A_AAC
Duration : 45 min 8 s
Channel(s) : 2 channels
Channel positions : Front: L R
Sampling rate : 48.0 kHz
Frame rate : 46.875 FPS (1024 spf)
Compression mode : Lossy
Language : English
Default : Yes
Forced : No[/b]

[url=https://www.sparrowpics.com/image/kbJ5y][img]https://www.sparrowpics.com/images/2017/07/04/kbJ5y.png[/img][/url]

[URL=https://tv.sparrowpics.com/image/Dfgjf][IMG]https://tv.sparrowpics.com/images/2017/10/18/Dfgjf.th.jpg[/IMG][/URL]

[URL=https://tv.sparrowpics.com/image/Df4Yr][b]Click To View Screenshot[/b][/URL]

[URL=https://tv.sparrowpics.com/image/DfDbe][b]Click To View Screenshot[/b][/URL]

[URL=https://tv.sparrowpics.com/image/DfFhB][b]Click To View Screenshot[/b][/URL][/center] ]]>
Mountain Monsters S03E01 WEB h264-CROSSFIT http://glodls.to/torrent.php?id=2883252 http://glodls.to/torrent.php?id=2883252 Wed, 18 Oct 2017 21:00:31 +0100 TV http://www.tvrage.com/schedule.php?show_yesterday=1. ]]> Mountain Monsters S03E02 WEB h264-CROSSFIT http://glodls.to/torrent.php?id=2883251 http://glodls.to/torrent.php?id=2883251 Wed, 18 Oct 2017 21:00:30 +0100 TV http://www.tvrage.com/schedule.php?show_yesterday=1. ]]> Street Outlaws S09E06 WEB h264-CROSSFIT http://glodls.to/torrent.php?id=2883250 http://glodls.to/torrent.php?id=2883250 Wed, 18 Oct 2017 21:00:26 +0100 TV http://www.tvrage.com/schedule.php?show_yesterday=1. ]]> Street Outlaws S09E05 WEB h264-CROSSFIT http://glodls.to/torrent.php?id=2883249 http://glodls.to/torrent.php?id=2883249 Wed, 18 Oct 2017 21:00:24 +0100 TV http://www.tvrage.com/schedule.php?show_yesterday=1. ]]> Street Outlaws S09E04 WEB h264-CROSSFIT http://glodls.to/torrent.php?id=2883248 http://glodls.to/torrent.php?id=2883248 Wed, 18 Oct 2017 21:00:22 +0100 TV http://www.tvrage.com/schedule.php?show_yesterday=1. ]]> Street Outlaws S09E06 720p WEB h264-KLINGON http://glodls.to/torrent.php?id=2883247 http://glodls.to/torrent.php?id=2883247 Wed, 18 Oct 2017 21:00:18 +0100 TV http://www.tvrage.com/schedule.php?show_yesterday=1. ]]> Street Outlaws S09E04 720p WEB h264-KLINGON http://glodls.to/torrent.php?id=2883246 http://glodls.to/torrent.php?id=2883246 Wed, 18 Oct 2017 21:00:14 +0100 TV http://www.tvrage.com/schedule.php?show_yesterday=1. ]]> Street Outlaws S09E05 720p WEB h264-KLINGON http://glodls.to/torrent.php?id=2883245 http://glodls.to/torrent.php?id=2883245 Wed, 18 Oct 2017 21:00:10 +0100 TV http://www.tvrage.com/schedule.php?show_yesterday=1. ]]> Bad Move S01E05 HDTV x264-MTB http://glodls.to/torrent.php?id=2883244 http://glodls.to/torrent.php?id=2883244 Wed, 18 Oct 2017 21:00:08 +0100 TV http://www.tvrage.com/schedule.php?show_yesterday=1. ]]> Bad Move S01E05 720p HDTV x264-MTB http://glodls.to/torrent.php?id=2883243 http://glodls.to/torrent.php?id=2883243 Wed, 18 Oct 2017 21:00:05 +0100 TV http://www.tvrage.com/schedule.php?show_yesterday=1. ]]> Bad.Move.S01E05.HDTV.x264-MTB[ettv] http://glodls.to/torrent.php?id=2883242 http://glodls.to/torrent.php?id=2883242 Wed, 18 Oct 2017 20:49:57 +0100 TV Et TV Shows


Bad.Move.S01E05.HDTV.x264-MTB


[Format]: Matroska
[Duration]: 22mn 17s
[Resolution]: 720 x 404 pixels
[Display aspect ratio]: 16:9
[Frame rate mode]: Constant
[Frame rate]: 25.000 fps


[color=green][b]#ettv -> To avoid fakes, ALWAYS check that the torrent was added by ettv[/b][/color]




[color=green][b]To keep us going Support us by donating Bitcoin: 3MDamEmgKepqagtQe9eEdQ3NCrWEWjhoL5[/b][/color]

[b]Screens...[/b]
[url=https://extraimage.net/image/TBgT][img]https://extraimage.net/images/2017/10/18/8553c097ac92d2699699951f52fdc796.th.jpg[/img][/url] ]]>
A.Storks.Journey.2017.720p.BluRay.x264-CONDITION[EtHD] http://glodls.to/torrent.php?id=2883241 http://glodls.to/torrent.php?id=2883241 Wed, 18 Oct 2017 20:41:34 +0100 Movies EtHD - Et High-Definition Movies

-----------------------------------------------------

[url=https://extraimage.net/image/TBXA][img]https://extraimage.net/images/2017/10/18/81f608785c6806926d1ececfb40c830c.jpg[/img][/url]

A.Storks.Journey.2017.720p.BluRay.x264-CONDITION

http://www.imdb.com/title/tt3823116/

[Video Bitrate]:.............: 4491 kbps
[Duration]:.............: 1h 24mn
[Video Codec]:.............: AVC
[Resolution]:.............: 1280x688 px
[Aspect Ratio]:.............: 1.85:1
[Audio Codec]:.............: DTS
[Audio Bitrate]:.............: 1509 kbps
[Audio Channels]:.............: 5.1ch
[Audio Language]:.............: English

Genre .......................: Animation | Adventure | Family

[color=green][b]#EtHD -> To avoid fakes, ALWAYS check that the torrent was added by EtHD [/b][/color]



[color=green][b]To keep us going Support us by donating Bitcoin: 3MDamEmgKepqagtQe9eEdQ3NCrWEWjhoL5[/b][/color]

[b]Screens...[/b]
[url=https://extraimage.net/image/TBXF][img]https://extraimage.net/images/2017/10/18/ee3fd8c5794a1ae370e55cc0d3b1260b.th.jpg[/img][/url]
[url=https://extraimage.net/image/TBXH][img]https://extraimage.net/images/2017/10/18/e85e2426fb294f362a8ad960695c793e.th.jpg[/img][/url]
[url=https://extraimage.net/image/TBXk][img]https://extraimage.net/images/2017/10/18/4513699b40bdb7bdd4ffd660ffea62b8.th.jpg[/img][/url]
[url=https://extraimage.net/image/TBXo][img]https://extraimage.net/images/2017/10/18/26888320b3b5bef31d985f56070a2875.th.jpg[/img][/url]
[url=https://extraimage.net/image/TBXv][img]https://extraimage.net/images/2017/10/18/7ae92ef353bca9661f15c609bf3ddf24.th.jpg[/img][/url] ]]>
You Can t Have It 2017 HDRip x264 ESub http://glodls.to/torrent.php?id=2883240 http://glodls.to/torrent.php?id=2883240 Wed, 18 Oct 2017 20:39:27 +0100 Movies
General
Format : Matroska
Format version : Version 4 / Version 2
File size : 642 MiB
Duration : 1 h 26 min
Overall bit rate : 1 035 kb/s

Video
ID : 1
Format : AVC
Format/Info : Advanced Video Codec
Format profile : High@L3
Format settings : CABAC / 4 Ref Frames
Format settings, CABAC : Yes
Format settings, RefFrames : 4 frames
Codec ID : V_MPEG4/ISO/AVC
Duration : 1 h 26 min
Bit rate : 900 kb/s
Width : 720 pixels
Height : 304 pixels
Display aspect ratio : 2.35:1
Frame rate mode : Constant
Frame rate : 23.976 (23976/1000) FPS
Color space : YUV
Chroma subsampling : 4:2:0
Bit depth : 8 bits
Scan type : Progressive
Bits/(Pixel*Frame) : 0.171
Stream size : 561 MiB (87%)
Writing library : x264 core 148 r2643 5c65704
Default : Yes
Forced : No

Audio
ID : 2
Format : AAC
Format/Info : Advanced Audio Codec
Format profile : LC
Codec ID : A_AAC-2
Duration : 1 h 26 min
Bit rate : 128 kb/s
Channel(s) : 2 channels
Channel positions : Front: L R
Sampling rate : 44.1 kHz
Frame rate : 43.066 FPS (1024 SPF)
Compression mode : Lossy
Stream size : 79.4 MiB (12%)
Default : Yes
Forced : No

Text
ID : 3
Format : UTF-8
Codec ID : S_TEXT/UTF8
Codec ID/Info : UTF-8 Plain Text
Duration : 1 h 25 min
Bit rate : 81 b/s
Count of elements : 1665
Stream size : 50.9 KiB (0%)
Default : Yes
Forced : No

[img]http://ssec.life/i/images/2017/10/18/2017-10-19_01h56_45.jpg[/img]
[img]http://ssec.life/i/images/2017/10/18/2017-10-19_01h57_13.jpg[/img]
[img]http://ssec.life/i/images/2017/10/18/2017-10-19_01h59_02.jpg[/img]
[img]http://ssec.life/i/images/2017/10/18/2017-10-19_01h56_11.jpg[/img]
[img]http://ssec.life/i/images/2017/10/18/2017-10-19_01h56_37.jpg[/img] ]]>
A.Storks.Journey.2017.720p.BluRay.x264-CONDITION http://glodls.to/torrent.php?id=2883239 http://glodls.to/torrent.php?id=2883239 Wed, 18 Oct 2017 20:38:06 +0100 Movies
[b]ImDb: [URL]http://www.imdb.com/title/tt3823116[/URL][/b]

[url=https://www.sparrowpics.com/image/kbFon][img]https://www.sparrowpics.com/images/2017/07/04/kbFon.png[/img][/url]

[b]Complete name : cdn-a.storks.journey.2017.720p.bluray.x264.mkv
Format : Matroska
Format version : Version 4 / Version 2
File size : 2.65 GiB
Duration : 1 h 24 min
Overall bit rate : 4 491 kb/s
Writing application : mkvmerge v17.0.0 ('Be Ur Friend') 64-bit
Writing library : libebml v1.3.5 + libmatroska v1.4.8

Video
ID : 1
Format : AVC
Format/Info : Advanced Video Codec
Format profile : High@L4.1
Format settings, CABAC : Yes
Format settings, ReFrames : 5 frames
Codec ID : V_MPEG4/ISO/AVC
Duration : 1 h 24 min
Bit rate : 2 980 kb/s
Width : 1 280 pixels
Height : 688 pixels
Display aspect ratio : 1.85:1
Frame rate mode : Constant
Frame rate : 23.976 (24000/1001) FPS
Color space : YUV
Chroma subsampling : 4:2:0
Bit depth : 8 bits
Scan type : Progressive
Bits/(Pixel*Frame) : 0.141
Stream size : 1.70 GiB (64%)
Writing library : x264 core 152 r2851 ba24899
Encoding settings : cabac=1 / ref=5 / deblock=1:0:0 / analyse=0x3:0x113 / me=umh / subme=8 / psy=1 / psy_rd=1.00:0.00 / mixed_ref=1 / me_range=16 / chroma_me=1 / trellis=1 / 8x8dct=1 / cqm=0 / deadzone=21,11 / fast_pskip=1 / chroma_qp_offset=-2 / threads=12 / lookahead_threads=2 / sliced_threads=0 / nr=0 / decimate=1 / interlaced=0 / bluray_compat=0 / constrained_intra=0 / bframes=3 / b_pyramid=2 / b_adapt=1 / b_bias=0 / direct=3 / weightb=1 / open_gop=0 / weightp=2 / keyint=240 / keyint_min=24 / scenecut=40 / intra_refresh=0 / rc_lookahead=50 / rc=2pass / mbtree=1 / bitrate=2980 / ratetol=1.0 / qcomp=0.60 / qpmin=0 / qpmax=69 / qpstep=4 / cplxblur=20.0 / qblur=0.5 / ip_ratio=1.40 / aq=1:1.00
Language : English
Default : Yes
Forced : No

Audio
ID : 2
Format : DTS
Format/Info : Digital Theater Systems
Mode : 16
Format settings, Endianness : Big
Codec ID : A_DTS
Duration : 1 h 24 min
Bit rate mode : Constant
Bit rate : 1 509 kb/s
Channel(s) : 6 channels
Channel positions : Front: L C R, Side: L R, LFE
Sampling rate : 48.0 kHz
Frame rate : 93.750 FPS (512 spf)
Bit depth : 24 bits
Compression mode : Lossy
Stream size : 911 MiB (34%)
Language : English
Default : Yes
Forced : No

Menu
00:00:00.000 : en:00:00:00.000
00:10:06.022 : en:00:10:06.022
00:21:00.009 : en:00:21:00.009
00:31:02.444 : en:00:31:02.444
00:43:06.000 : en:00:43:06.000
00:52:04.538 : en:00:52:04.538
01:03:14.082 : en:01:03:14.082
01:13:09.760 : en:01:13:09.760
01:18:29.955 : en:01:18:29.955[/b]

[url=https://www.sparrowpics.com/image/kbJ5y][img]https://www.sparrowpics.com/images/2017/07/04/kbJ5y.png[/img][/url]

[URL=https://www.sparrowpics.com/image/2Helm][IMG]https://www.sparrowpics.com/images/2017/10/19/2Helm.th.jpg[/IMG][/URL]

[URL=https://www.sparrowpics.com/image/2Hlxr][b]Click To View Screenshot[/b][/URL]

[URL=https://www.sparrowpics.com/image/2H8oW][b]Click To View Screenshot[/b][/URL]

[URL=https://www.sparrowpics.com/image/2HH4n][b]Click To View Screenshot[/b][/URL][/center] ]]>
A.Storks.Journey.2017.BDRip.x264-AFFECTION http://glodls.to/torrent.php?id=2883234 http://glodls.to/torrent.php?id=2883234 Wed, 18 Oct 2017 20:34:37 +0100 Movies [color=red][b]
A.Storks.Journey.2017.BDRip.x264-AFFECTION

[/b][/color]


IMDb: http://www.imdb.com/title/tt3823116/





[url=https://boltimg.com/image/t52z][img]https://boltimg.com/images/t52z.png[/img][/url]



[color=green][b]
General

(Duration): 1h 24mn
(FileSize): 679 MiB



Audio

(Format): AAC - Advanced Audio Codec
(Codec): AAC LC



Video

(Format): AVC - Advanced Video Codec
(Media): video/H264
(Format): x264
(Resolution): 720x388 px
(AspectRatio): 1.85:1
(FrameRate): 23.976 fps




[/b][/color]


[url=https://boltimg.com/image/tzTE][img]https://boltimg.com/images/tzTE.png[/img][/url]



[color=purple][b](Click to enlarge)[/b][/color]

[url=https://boltimg.com/image/RVskA][img]https://boltimg.com/images/RVskA.th.jpg[/img][/url] [url=https://boltimg.com/image/RVVIk][img]https://boltimg.com/images/RVVIk.th.jpg[/img][/url] [url=https://boltimg.com/image/RVcym][img]https://boltimg.com/images/RVcym.th.jpg[/img][/url] [url=https://boltimg.com/image/RVizI][img]https://boltimg.com/images/RVizI.th.jpg[/img][/url] [url=https://boltimg.com/image/RVJZ5][img]https://boltimg.com/images/RVJZ5.th.jpg[/img][/url] [url=https://boltimg.com/image/RVlgW][img]https://boltimg.com/images/RVlgW.th.jpg[/img][/url]

[/center]
]]>
PlayboyPlus.17.10.20.Veronika.Skylee.Memorable.Morning.XXX.1080p.x264-GAGViD[N1C] http://glodls.to/torrent.php?id=2883232 http://glodls.to/torrent.php?id=2883232 Wed, 18 Oct 2017 20:33:04 +0100 Adult XXX PlayboyPlus.17.10.20.Veronika.Skylee.Memorable.Morning.XXX.1080p.x264-GAGViD


[Format]: MPEG-4
[Duration]: 9mn 34s
[Resolution]: 1 920 x 1 080 pixels
[Display aspect ratio]: 16:9
[Frame rate mode]: Constant
[Frame rate]: 30.000 fps


[color=green][b]#N1C -> To avoid fakes, ALWAYS check that the torrent was added by NO1CARES[/b][/color]




[color=green][b]Help us by donating with Bitcoin: 1Pgwp16gmLHmPzgjJLxZnMw7YeqiUekUoe[/b][/color]

[b]Screens...[/b]
[url]http://HotImage.uk/img-59e7ba3a288d2.html[/url]
[url]http://HotImage.uk/img-59e7ba3a3e214.html[/url]
[url]http://HotImage.uk/img-59e7ba3a4d718.html[/url]
[url]http://HotImage.uk/img-59e7ba3a59ca8.html[/url] ]]>
A.Storks.Journey.2017.BDRip.x264-AFFECTION http://glodls.to/torrent.php?id=2883231 http://glodls.to/torrent.php?id=2883231 Wed, 18 Oct 2017 20:32:39 +0100 Movies
[b]ImDb: [URL]http://www.imdb.com/title/tt3823116[/URL][/b]

[url=https://www.sparrowpics.com/image/kbFon][img]https://www.sparrowpics.com/images/2017/07/04/kbFon.png[/img][/url]

[b]Complete name : afn-a.storks.journey.2017.bdrip.x264.mkv
Format : Matroska
Format version : Version 4 / Version 2
File size : 679 MiB
Duration : 1 h 24 min
Overall bit rate : 1 125 kb/s
Writing application : mkvmerge v17.0.0 ('Be Ur Friend') 64-bit
Writing library : libebml v1.3.5 + libmatroska v1.4.8

Video
ID : 1
Format : AVC
Format/Info : Advanced Video Codec
Format profile : High@L3.1
Format settings, CABAC : Yes
Format settings, ReFrames : 5 frames
Codec ID : V_MPEG4/ISO/AVC
Duration : 1 h 24 min
Width : 720 pixels
Height : 388 pixels
Display aspect ratio : 1.85:1
Frame rate mode : Constant
Frame rate : 23.976 (24000/1001) FPS
Color space : YUV
Chroma subsampling : 4:2:0
Bit depth : 8 bits
Scan type : Progressive
Writing library : x264 core 152 r2851 ba24899
Encoding settings : cabac=1 / ref=5 / deblock=1:2:1 / analyse=0x3:0x113 / me=hex / subme=8 / psy=1 / psy_rd=0.50:0.00 / mixed_ref=1 / me_range=16 / chroma_me=1 / trellis=2 / 8x8dct=1 / cqm=0 / deadzone=21,11 / fast_pskip=1 / chroma_qp_offset=-2 / threads=12 / lookahead_threads=2 / sliced_threads=0 / nr=0 / decimate=1 / interlaced=0 / bluray_compat=0 / constrained_intra=0 / bframes=3 / b_pyramid=2 / b_adapt=1 / b_bias=0 / direct=3 / weightb=1 / open_gop=0 / weightp=2 / keyint=240 / keyint_min=24 / scenecut=40 / intra_refresh=0 / rc_lookahead=50 / rc=crf / mbtree=1 / crf=19.0 / qcomp=0.60 / qpmin=0 / qpmax=69 / qpstep=4 / ip_ratio=1.40 / aq=1:0.70
Language : English
Default : Yes
Forced : No
Color range : Limited
Matrix coefficients : BT.709

Audio
ID : 2
Format : AAC
Format/Info : Advanced Audio Codec
Format profile : LC
Codec ID : A_AAC
Duration : 1 h 24 min
Channel(s) : 2 channels
Channel positions : Front: L R
Sampling rate : 48.0 kHz
Frame rate : 46.875 FPS (1024 spf)
Compression mode : Lossy
Delay relative to video : 20 ms
Language : English
Default : Yes
Forced : No

Menu
00:00:00.000 : en:00:00:00.000
00:10:06.022 : en:00:10:06.022
00:21:00.009 : en:00:21:00.009
00:31:02.444 : en:00:31:02.444
00:43:06.000 : en:00:43:06.000
00:52:04.538 : en:00:52:04.538
01:03:14.082 : en:01:03:14.082
01:13:09.760 : en:01:13:09.760
01:18:29.955 : en:01:18:29.955[/b]

[url=https://www.sparrowpics.com/image/kbJ5y][img]https://www.sparrowpics.com/images/2017/07/04/kbJ5y.png[/img][/url]

[URL=https://www.sparrowpics.com/image/2HrkB][IMG]https://www.sparrowpics.com/images/2017/10/19/2HrkB.th.jpg[/IMG][/URL]

[URL=https://www.sparrowpics.com/image/2HbWe][b]Click To View Screenshot[/b][/URL]

[URL=https://www.sparrowpics.com/image/2H4zs][b]Click To View Screenshot[/b][/URL]

[URL=https://www.sparrowpics.com/image/2H5Df][b]Click To View Screenshot[/b][/URL][/center] ]]>
PlayboyPlus.17.10.20.Veronika.Skylee.Memorable.Morning.XXX.1080p.x264-GAGViD http://glodls.to/torrent.php?id=2883230 http://glodls.to/torrent.php?id=2883230 Wed, 18 Oct 2017 20:29:41 +0100 Adult XXX
{Duration} : 9 min 34 s
{Format} : MPEG-4
{Resolution} : 1920 x 1080 pixels
{Aspect Ratio} : 16:9
{Frame Rate} : 30.000 fps

[b]Thumbnails : -[/b]


[URL=https://www.sizzlingclicks.com/image/aKvus][IMG]https://www.sizzlingclicks.com/images/2017/10/18/aKvus.th.jpg[/IMG][/URL]
[b][URL]https://www.sizzlingclicks.com/image/aKvus[/URL][/b]
[b][URL]https://www.sizzlingclicks.com/image/aKwTL[/URL][/b]
[b][URL]https://www.sizzlingclicks.com/image/aKDsr[/URL][/b]
[b][URL]https://www.sizzlingclicks.com/image/aKfr9[/URL][/b] ]]>
A Very Sordid Wedding 2017 HDRip DD2 0 x264-BDP http://glodls.to/torrent.php?id=2883229 http://glodls.to/torrent.php?id=2883229 Wed, 18 Oct 2017 20:08:55 +0100 Movies COVER:
https://tinizo.com/upload/small/2017/10/18/59e7b4952cdad.jpg

RELEASED:
10 March 2017

IMDB: https://www.imdb.com/title/tt5634960/



Size: 745034475 bytes (710.52 MiB), duration: 01:48:25, avg.bitrate: 916 kb/s
Audio: ac3, 48000 Hz, stereo
Video: h264, yuv420p, 720x384, 23.98 fps(r) => 691x384




SCREENS:
[url=https://tinizo.com/img-59e7b495bbf77.html[/url]

[url]https://tinizo.com/img-59e7b495c0655.html[/url]

[url]https://tinizo.com/img-59e7b495c370c.html[/url]


DOWNLOAD AND ENJOY.

KEEP IT FOR LONG SEEDING TO HELP OTHERS


Thanks to : BDP
Movie Share ]]>
Passion-HD - My Sexy Stepbrother - Charlotte Carmen [1080p] mp4 http://glodls.to/torrent.php?id=2883228 http://glodls.to/torrent.php?id=2883228 Wed, 18 Oct 2017 20:07:42 +0100 Adult XXX
900.80 MB

Screens

[url]http://img.img-central.com/image/Jll4Z[/url]
[url]http://img.img-central.com/image/Jl5oL[/url]
[url]http://img.img-central.com/image/JlM19[/url]
[url]http://img.img-central.com/image/JleCh[/url]

[img]https://s1.postimg.org/145ucxa2hb/Passion-_HD_1.jpg[/img]
]]>
A.Very.Sordid.Wedding.2017.HDRip.DD2.0.x264-BDP http://glodls.to/torrent.php?id=2883227 http://glodls.to/torrent.php?id=2883227 Wed, 18 Oct 2017 20:05:30 +0100 Movies
[b]ImDb: [URL]http://www.imdb.com/title/tt5634960[/URL][/b]

[url=https://www.sparrowpics.com/image/kbFon][img]https://www.sparrowpics.com/images/2017/07/04/kbFon.png[/img][/url]

[b]Complete name : A.Very.Sordid.Wedding.2017.HDRip.DD2.0.x264-BDP.mkv
Format : Matroska
Format version : Version 4 / Version 2
File size : 711 MiB
Duration : 1 h 48 min
Overall bit rate : 916 kb/s
Encoded date : UTC 2017-10-18 19:52:54
Writing application : mkvmerge v7.8.0 ('River Man') 32bit built on Mar 27 2015 16:18:02
Writing library : libebml v1.3.1 + libmatroska v1.4.2 / Lavf57.82.102
COMPOSER : Encoder *BDP*

Video
ID : 1
Format : AVC
Format/Info : Advanced Video Codec
Format profile : High@L4.1
Format settings, CABAC : Yes
Format settings, ReFrames : 5 frames
Codec ID : V_MPEG4/ISO/AVC
Duration : 1 h 48 min
Bit rate : 760 kb/s
Width : 720 pixels
Height : 384 pixels
Display aspect ratio : 16:9
Frame rate mode : Constant
Frame rate : 23.976 (24000/1001) FPS
Standard : Component
Color space : YUV
Chroma subsampling : 4:2:0
Bit depth : 8 bits
Scan type : Progressive
Bits/(Pixel*Frame) : 0.115
Stream size : 585 MiB (82%)
Writing library : x264 core 152 r2851
Encoding settings : cabac=1 / ref=5 / deblock=1:-3:-3 / analyse=0x3:0x133 / me=hex / subme=7 / psy=1 / psy_rd=1.00:0.00 / mixed_ref=1 / me_range=16 / chroma_me=1 / trellis=1 / 8x8dct=1 / cqm=0 / deadzone=21,11 / fast_pskip=1 / chroma_qp_offset=-2 / threads=12 / lookahead_threads=2 / sliced_threads=0 / nr=0 / decimate=1 / interlaced=0 / bluray_compat=0 / constrained_intra=0 / bframes=3 / b_pyramid=2 / b_adapt=1 / b_bias=0 / direct=0 / weightb=1 / open_gop=0 / weightp=2 / keyint=239 / keyint_min=23 / scenecut=40 / intra_refresh=0 / rc_lookahead=40 / rc=abr / mbtree=1 / bitrate=760 / ratetol=1.0 / qcomp=0.60 / qpmin=10 / qpmax=69 / qpstep=4 / vbv_maxrate=62500 / vbv_bufsize=62500 / nal_hrd=none / filler=0 / ip_ratio=1.40 / aq=3:1.00
Default : Yes
Forced : No
Color range : Limited
Color primaries : BT.709
Transfer characteristics : BT.709
Matrix coefficients : BT.709

Audio
ID : 2
Format : AC-3
Format/Info : Audio Coding 3
Format settings, Endianness : Big
Codec ID : A_AC3
Duration : 1 h 48 min
Bit rate mode : Constant
Bit rate : 160 kb/s
Channel(s) : 2 channels
Channel positions : Front: L R
Sampling rate : 48.0 kHz
Frame rate : 31.250 FPS (1536 spf)
Bit depth : 16 bits
Compression mode : Lossy
Stream size : 124 MiB (17%)
Writing library : Lavc57.106.104 ac3_fixed
Service kind : Complete Main
Default : Yes
Forced : No[/b]

[url=https://www.sparrowpics.com/image/kbJ5y][img]https://www.sparrowpics.com/images/2017/07/04/kbJ5y.png[/img][/url]

[URL=https://www.sparrowpics.com/image/2HA1M][IMG]https://www.sparrowpics.com/images/2017/10/19/2HA1M.th.jpg[/IMG][/URL]

[URL=https://www.sparrowpics.com/image/2HdTV][b]Click To View Screenshot[/b][/URL]

[URL=https://www.sparrowpics.com/image/2Hpld][b]Click To View Screenshot[/b][/URL]

[URL=https://www.sparrowpics.com/image/2Hyx1][b]Click To View Screenshot[/b][/URL][/center] ]]>
FirstAnalQuest - Hungary babe Lucette Diamond gets first anal sex! [1080p] mp4 http://glodls.to/torrent.php?id=2883226 http://glodls.to/torrent.php?id=2883226 Wed, 18 Oct 2017 20:05:21 +0100 Adult XXX
2.17 GB

Screens

[url]http://img.img-central.com/image/Jlz9e[/url]
[url]http://img.img-central.com/image/Jl9gq[/url]
[url]http://img.img-central.com/image/JlBxE[/url]
[url]http://img.img-central.com/image/JlTbl[/url]

[img]https://s1.postimg.org/1937xivp67/First_Anal_Quest_1.jpg[/img] ]]>
A.Very.Sordid.Wedding.2017.HDRip.DD2.0.x264-BDP http://glodls.to/torrent.php?id=2883225 http://glodls.to/torrent.php?id=2883225 Wed, 18 Oct 2017 20:04:46 +0100 Movies [color=red][b]
A.Very.Sordid.Wedding.2017.HDRip.DD2.0.x264-BDP

[/b][/color]


IMDb: http://www.imdb.com/title/tt5634960/





[url=https://boltimg.com/image/t52z][img]https://boltimg.com/images/t52z.png[/img][/url]



[color=green][b]
General

(Duration): 1h 48mn
(FileSize): 711 MiB



Audio

(Format): AC-3 - Audio Coding 3
(Codec): AC3



Video

(Format): AVC - Advanced Video Codec
(Media): video/H264
(Format): x264
(Resolution): 720x384 px
(AspectRatio): 16:9
(FrameRate):




[/b][/color]


[url=https://boltimg.com/image/tzTE][img]https://boltimg.com/images/tzTE.png[/img][/url]



[color=purple][b](Click to enlarge)[/b][/color]

[url=https://boltimg.com/image/RVSZP][img]https://boltimg.com/images/RVSZP.th.jpg[/img][/url] [url=https://boltimg.com/image/RVdPe][img]https://boltimg.com/images/RVdPe.th.jpg[/img][/url] [url=https://boltimg.com/image/RVmic][img]https://boltimg.com/images/RVmic.th.jpg[/img][/url] [url=https://boltimg.com/image/RV1Gu][img]https://boltimg.com/images/RV1Gu.th.jpg[/img][/url] [url=https://boltimg.com/image/RVRb3][img]https://boltimg.com/images/RVRb3.th.jpg[/img][/url] [url=https://boltimg.com/image/RVnRn][img]https://boltimg.com/images/RVnRn.th.jpg[/img][/url]

[/center]
]]>
Wedding Bells 2016 Hallmark 720p HDTV X264 Solar http://glodls.to/torrent.php?id=2883224 http://glodls.to/torrent.php?id=2883224 Wed, 18 Oct 2017 20:03:04 +0100 Movies [img]https://extraimage.net/images/2017/10/18/32cd3d02ab50837a0b8d795180d1e6d5.jpg[/img]
[img]https://extraimage.net/images/2017/10/18/97262bd25c5997236fa3d13445cced58.jpg[/img]
[img]https://extraimage.net/images/2017/10/18/a185b4f2eb6f55cdebe99492b3246407.jpg[/img]

[url=http://www.imdb.com/title/tt5670394/]http://www.imdb.com/title/tt5670394/[/url]

[size=3][b]Summary:[/b]_ Two people with commitments issues are asked to be best man and maid of honor at their friends wedding. With nothing much in common, they both didn't expect to find the romance of a life time. [/size]

Format              : MPEG-4 | AVC | Main L4
File size           : 978 MiB
Duration            : 1 h 23 min
Overall bit rate    : 1 635 kb/s

Video
Width               : 1 280 pixels
Height              : 720 pixels
aspect ratio        : 16:9

Audio
Format              : AAC | 128 Kbps | 2 channel | English



]]>
[InterracialPass] Jessie Wylde Loves The Cock In Her First Interracial (18 10 2017) rq mp4 http://glodls.to/torrent.php?id=2883223 http://glodls.to/torrent.php?id=2883223 Wed, 18 Oct 2017 20:01:50 +0100 Adult XXX Audio: aac, 44100 Hz, 2 channels, s16, 160 kb/s (und)
Video: h264, yuv420p, 640x360, 1227 kb/s, 29,97 fps(r) (und)

http://imgjazz.com/img-59e7b31900917.html

]]>
Analized - Sarah Vandella Is In Love With Rough Anal Punishment [1080p] mp4 http://glodls.to/torrent.php?id=2883222 http://glodls.to/torrent.php?id=2883222 Wed, 18 Oct 2017 19:58:29 +0100 Adult XXX
2.30 GB

Screens

[url]http://img.img-central.com/image/JlNtS[/url]
[url]http://img.img-central.com/image/JlfC4[/url]
[url]http://img.img-central.com/image/JlwDn[/url]
[url]http://img.img-central.com/image/JlPYm[/url]

[img]https://s1.postimg.org/1lhupivoan/Analized_1.jpg[/img] ]]>
CumLouder - You can borrow my boyfriend - Apolonia Lapiedra, Gina [1080p] mp4 http://glodls.to/torrent.php?id=2883221 http://glodls.to/torrent.php?id=2883221 Wed, 18 Oct 2017 19:52:28 +0100 Adult XXX
2.48 GB

Screens

[url]http://img.img-central.com/image/Jl1xX[/url]
[url]http://img.img-central.com/image/JlnNV[/url]
[url]http://img.img-central.com/image/Jl64U[/url]
[url]http://img.img-central.com/image/JlGob[/url]

[img]https://s1.postimg.org/6a5i7lxt0v/Cum_Louder_1.jpg[/img] ]]>
[BoundGangBangs] Mandy Muse Gets Her Big Ripe Ass Bound Up and Gangbanged (18 10 2017) rq mp4 http://glodls.to/torrent.php?id=2883219 http://glodls.to/torrent.php?id=2883219 Wed, 18 Oct 2017 19:44:12 +0100 Adult XXX Audio: aac, 44100 Hz, 2 channels, s16, 125 kb/s (und)
Video: h264, yuv420p, 640x360, 699 kb/s, 29,97 fps(r) (und)

http://www.pixsense.net/site/v/3259735#51&3259735

]]>
BoundGangBangs.17.10.18.Mandy.Muse.XXX.720p.MP4-KTR[N1C] http://glodls.to/torrent.php?id=2883212 http://glodls.to/torrent.php?id=2883212 Wed, 18 Oct 2017 19:33:08 +0100 Adult XXX BoundGangBangs.17.10.18.Mandy.Muse.XXX.720p.MP4-KTR


[Format]: MPEG-4
[Duration]: 59mn 26s
[Resolution]: 1 280 x 720 pixels
[Display aspect ratio]: 16:9
[Frame rate mode]: Constant
[Frame rate]: 29.970 fps


[color=green][b]#N1C -> To avoid fakes, ALWAYS check that the torrent was added by NO1CARES[/b][/color]




[color=green][b]Help us by donating with Bitcoin: 1Pgwp16gmLHmPzgjJLxZnMw7YeqiUekUoe[/b][/color]

[b]Screens...[/b]
[url]http://HotImage.uk/img-59e7ac2c80ad4.html[/url]
[url]http://HotImage.uk/img-59e7ac2c89b93.html[/url]
[url]http://HotImage.uk/img-59e7ac2c91aaf.html[/url]
[url]http://HotImage.uk/img-59e7ac2c99079.html[/url] ]]>
BoundGangBangs.17.10.18.Mandy.Muse.XXX.720p.MP4-KTR http://glodls.to/torrent.php?id=2883211 http://glodls.to/torrent.php?id=2883211 Wed, 18 Oct 2017 19:32:47 +0100 Adult XXX
{Duration} : 59 min 26 s
{Format} : MPEG-4
{Resolution} : 1280 x 720 pixels
{Aspect Ratio} : 16:9
{Frame Rate} : 29.970 fps

[b]Thumbnails : -[/b]


[URL=https://www.sizzlingclicks.com/image/aKBAZ][IMG]https://www.sizzlingclicks.com/images/2017/10/18/aKBAZ.th.jpg[/IMG][/URL]
[b][URL]https://www.sizzlingclicks.com/image/aKBAZ[/URL][/b]
[b][URL]https://www.sizzlingclicks.com/image/aKQj7[/URL][/b]
[b][URL]https://www.sizzlingclicks.com/image/aKbQd[/URL][/b]
[b][URL]https://www.sizzlingclicks.com/image/aKW0i[/URL][/b] ]]>
Cuckedxxx - Closing the Deal - Amia Miley [1080p] mp4 http://glodls.to/torrent.php?id=2883206 http://glodls.to/torrent.php?id=2883206 Wed, 18 Oct 2017 19:29:05 +0100 Adult XXX
2.16 GB

Screens

[url]http://img.img-central.com/image/JTh41[/url]
[url]http://img.img-central.com/image/JTFmp[/url]
[url]http://img.img-central.com/image/JT7tC[/url]
[url]http://img.img-central.com/image/JTZ58[/url]

[img]https://s1.postimg.org/5djcxw8v5r/Cuckedxxx_1.jpg[/img]
]]>
UltimateSurrender.17.10.18.Cheyenne.Jewel.And.Serene.Siren.XXX.720p.MP4-KTR[N1C] http://glodls.to/torrent.php?id=2883205 http://glodls.to/torrent.php?id=2883205 Wed, 18 Oct 2017 19:29:01 +0100 Adult XXX UltimateSurrender.17.10.18.Cheyenne.Jewel.And.Serene.Siren.XXX.720p.MP4-KTR


[Format]: MPEG-4
[Duration]: 49mn 23s
[Resolution]: 1 280 x 720 pixels
[Display aspect ratio]: 16:9
[Frame rate mode]: Constant
[Frame rate]: 29.970 fps


[color=green][b]#N1C -> To avoid fakes, ALWAYS check that the torrent was added by NO1CARES[/b][/color]




[color=green][b]Help us by donating with Bitcoin: 1Pgwp16gmLHmPzgjJLxZnMw7YeqiUekUoe[/b][/color]

[b]Screens...[/b]
[url]http://HotImage.uk/img-59e7ab3c0e10f.html[/url]
[url]http://HotImage.uk/img-59e7ab3c26df3.html[/url]
[url]http://HotImage.uk/img-59e7ab3c2c89a.html[/url]
[url]http://HotImage.uk/img-59e7ab3c31e9b.html[/url] ]]>
UltimateSurrender.17.10.18.Cheyenne.Jewel.And.Serene.Siren.XXX.720p.MP4-KTR http://glodls.to/torrent.php?id=2883204 http://glodls.to/torrent.php?id=2883204 Wed, 18 Oct 2017 19:26:18 +0100 Adult XXX
{Duration} : 49 min 23 s
{Format} : MPEG-4
{Resolution} : 1280 x 720 pixels
{Aspect Ratio} : 16:9
{Frame Rate} : 29.970 fps

[b]Thumbnails : -[/b]


[URL=https://www.sizzlingclicks.com/image/aKRmW][IMG]https://www.sizzlingclicks.com/images/2017/10/18/aKRmW.th.jpg[/IMG][/URL]
[b][URL]https://www.sizzlingclicks.com/image/aKRmW[/URL][/b]
[b][URL]https://www.sizzlingclicks.com/image/aKdrj[/URL][/b]
[b][URL]https://www.sizzlingclicks.com/image/aKtk8[/URL][/b]
[b][URL]https://www.sizzlingclicks.com/image/aKKDB[/URL][/b] ]]>
KinkyFamily - Hannah Hays [1080p] mp4 http://glodls.to/torrent.php?id=2883203 http://glodls.to/torrent.php?id=2883203 Wed, 18 Oct 2017 19:20:26 +0100 Adult XXX
1.98 GB

Screens

[url]http://img.img-central.com/image/JTWz2[/url]
[url]http://img.img-central.com/image/JTugG[/url]
[url]http://img.img-central.com/image/JTxus[/url]
[url]http://img.img-central.com/image/JTdNy[/url]

[img]https://s1.postimg.org/9g93z5pfsf/Kinky_Family_1.jpg[/img]
]]>
UltraFilms - Gina Gerson Eats Breathes Lives For Sex [1080p] mp4 http://glodls.to/torrent.php?id=2883202 http://glodls.to/torrent.php?id=2883202 Wed, 18 Oct 2017 19:14:46 +0100 Adult XXX
912.98 MB

Screens

[url]http://img.img-central.com/image/JTQqh[/url]
[url]http://img.img-central.com/image/JTo5g[/url]
[url]http://img.img-central.com/image/JTsrw[/url]
[url]http://img.img-central.com/image/JTA7u[/url]

[img]https://s1.postimg.org/3thq7kkf1r/Ultra_Films_1.jpg[/img]
]]>
Anal.Cream.Pies.2.XXX.DVDRip.x264-Pr0nStarS http://glodls.to/torrent.php?id=2883201 http://glodls.to/torrent.php?id=2883201 Wed, 18 Oct 2017 19:08:56 +0100 Adult XXX
{Duration} : 2 h 24 min
{Format} : MPEG-4
{Resolution} : 720 x 406 pixels
{Aspect Ratio} : 16:9
{Frame Rate} : 23.976 fps

[b]Thumbnails : -[/b]


[URL=https://www.sizzlingclicks.com/image/aKkQX][IMG]https://www.sizzlingclicks.com/images/2017/10/18/aKkQX.th.jpg[/IMG][/URL]
[b][URL]https://www.sizzlingclicks.com/image/aKkQX[/URL][/b]
[b][URL]https://www.sizzlingclicks.com/image/aK5VJ[/URL][/b]
[b][URL]https://www.sizzlingclicks.com/image/aKLuY[/URL][/b]
[b][URL]https://www.sizzlingclicks.com/image/aKPTA[/URL][/b] ]]>
The.Good.Catholic.2017.BRRip.XviD.AC3-iFT http://glodls.to/torrent.php?id=2883200 http://glodls.to/torrent.php?id=2883200 Wed, 18 Oct 2017 19:00:42 +0100 Movies
[b]ImDb: [URL]http://www.imdb.com/title/tt4721404[/URL][/b]

[url=https://www.sparrowpics.com/image/kbFon][img]https://www.sparrowpics.com/images/2017/07/04/kbFon.png[/img][/url]

[b]Complete name : The.Good.Catholic.2017.BRRip.XviD.AC3-iFT.avi
Format : AVI
Format/Info : Audio Video Interleave
Format profile : OpenDML
Format settings : rec
File size : 1.37 GiB
Duration : 1 h 18 min
Overall bit rate : 2 502 kb/s
Writing application : AVI-Mux GUI 1.17.8.3, Feb 16 201019:42:50

Video
ID : 0
Format : MPEG-4 Visual
Format profile : Advanced Simple@L5
Format settings, BVOP : 2
Format settings, QPel : No
Format settings, GMC : No warppoints
Format settings, Matrix : Default (H.263)
Muxing mode : Packed bitstream
Codec ID : XVID
Codec ID/Hint : XviD
Duration : 1 h 18 min
Bit rate : 2 049 kb/s
Width : 720 pixels
Height : 384 pixels
Display aspect ratio : 1.85:1
Frame rate : 23.976 (24000/1001) FPS
Color space : YUV
Chroma subsampling : 4:2:0
Bit depth : 8 bits
Scan type : Progressive
Compression mode : Lossy
Bits/(Pixel*Frame) : 0.309
Stream size : 1.12 GiB (82%)
Writing library : XviD 73

Audio
ID : 1
Format : AC-3
Format/Info : Audio Coding 3
Format settings, Endianness : Big
Codec ID : 2000
Duration : 1 h 18 min
Bit rate mode : Constant
Bit rate : 448 kb/s
Channel(s) : 6 channels
Channel positions : Front: L C R, Side: L R, LFE
Sampling rate : 48.0 kHz
Frame rate : 31.250 FPS (1536 spf)
Bit depth : 16 bits
Compression mode : Lossy
Stream size : 251 MiB (18%)
Alignment : Aligned on interleaves
Interleave, duration : 64 ms (1.53 video frames)
Interleave, preload duration : 192 ms
Title : ac3
Service kind : Complete Main[/b]

[url=https://www.sparrowpics.com/image/kbJ5y][img]https://www.sparrowpics.com/images/2017/07/04/kbJ5y.png[/img][/url]

[URL=https://www.sparrowpics.com/image/2HoYY][IMG]https://www.sparrowpics.com/images/2017/10/19/2HoYY.th.jpg[/IMG][/URL]

[URL=https://www.sparrowpics.com/image/2Hsb9][b]Click To View Screenshot[/b][/URL]

[URL=https://www.sparrowpics.com/image/2Hukb][b]Click To View Screenshot[/b][/URL]

[URL=https://www.sparrowpics.com/image/2H0W3][b]Click To View Screenshot[/b][/URL][/center] ]]>
Tushy 17 10 18 Kagney Linn Karter XXX 480p MP4-TK http://glodls.to/torrent.php?id=2883199 http://glodls.to/torrent.php?id=2883199 Wed, 18 Oct 2017 18:59:46 +0100 Adult XXX
[b]Screenshots:[/b]

[url]http://imagerar.com/imgs-59e7a4a22597a.html[/url]

[url]http://imagerar.com/imgs-59e7a4a21f68a.html[/url]

[url]http://imagerar.com/imgs-59e7a4a1c9247.html[/url]

[url]http://imagerar.com/imgs-59e7a49fb8a19.html[/url]

File Size : 387 MiB
Duration : 46mn 42s
Video : h264, yuv420p, 854x480p, 1024 Kbps
Audio : aac , 2 ch, stereo , 128 Kbps ]]>